<?xml version="1.0" standalone="no"?>
<!DOCTYPE svg PUBLIC "-//W3C//DTD SVG 1.1//EN" "http://www.w3.org/Graphics/SVG/1.1/DTD/svg11.dtd" >
<svg xmlns="http://www.w3.org/2000/svg">
<metadata>Generated by IcoMoon</metadata>
<defs>
<font id="libert" horiz-adv-x="1024">
<font-face units-per-em="1024" ascent="960" descent="-64" />
<missing-glyph horiz-adv-x="1024" />
<glyph unicode="&#x20;" horiz-adv-x="512" d="" />
<glyph unicode="&#xe900;" glyph-name="arrows" d="M937.6 201.6c-9.6 0-16 3.2-22.4 9.6l-403.2 406.4-403.2-406.4c-12.8-12.8-32-12.8-44.8 0s-12.8 32 0 44.8l425.6 428.8c6.4 6.4 12.8 9.6 22.4 9.6v0c9.6 0 16-3.2 22.4-9.6l425.6-428.8c12.8-12.8 12.8-32 0-44.8-6.4-6.4-12.8-9.6-22.4-9.6z" />
<glyph unicode="&#xe901;" glyph-name="calendar" d="M312.888 419.555v-56.889h-56.888v56.889h56.888zM255.999 476.445c-15.088 0-29.557-5.993-40.226-16.664-10.669-10.668-16.662-25.139-16.662-40.226v-56.889c0-15.087 5.993-29.555 16.662-40.226 10.669-10.668 25.138-16.661 40.226-16.661h56.888c15.090 0 29.558 5.993 40.229 16.661 10.668 10.671 16.661 25.139 16.661 40.226v56.889c0 15.087-5.993 29.558-16.661 40.226-10.671 10.671-25.139 16.664-40.229 16.664h-56.888zM540.443 419.555v-56.889h-56.887v56.889h56.887zM483.556 476.445c-15.090 0-29.558-5.993-40.229-16.664-10.668-10.668-16.661-25.139-16.661-40.226v-56.889c0-15.087 5.993-29.555 16.661-40.226 10.671-10.668 25.139-16.661 40.229-16.661h56.887c15.090 0 29.558 5.993 40.229 16.661 10.668 10.671 16.661 25.139 16.661 40.226v56.889c0 15.087-5.993 29.558-16.661 40.226-10.671 10.671-25.139 16.664-40.229 16.664h-56.887zM767.998 419.555v-56.889h-56.887v56.889h56.887zM711.111 476.445c-15.090 0-29.558-5.993-40.226-16.664-10.671-10.668-16.664-25.139-16.664-40.226v-56.889c0-15.087 5.993-29.555 16.664-40.226 10.668-10.668 25.136-16.661 40.226-16.661h56.887c15.090 0 29.558 5.993 40.229 16.661 10.668 10.671 16.661 25.139 16.661 40.226v56.889c0 15.087-5.993 29.558-16.661 40.226-10.671 10.671-25.139 16.664-40.229 16.664h-56.887zM312.888 192v-56.889h-56.888v56.889h56.888zM255.999 248.89c-15.088 0-29.557-5.993-40.226-16.664-10.669-10.668-16.662-25.139-16.662-40.226v-56.889c0-15.087 5.993-29.558 16.662-40.226s25.138-16.664 40.226-16.664h56.888c15.090 0 29.558 5.996 40.229 16.664 10.668 10.668 16.661 25.139 16.661 40.226v56.889c0 15.087-5.993 29.558-16.661 40.226-10.671 10.671-25.139 16.664-40.229 16.664h-56.888zM540.443 192v-56.889h-56.887v56.889h56.887zM483.556 248.89c-15.090 0-29.558-5.993-40.229-16.664-10.668-10.668-16.661-25.139-16.661-40.226v-56.889c0-15.087 5.993-29.558 16.661-40.226 10.671-10.668 25.139-16.664 40.229-16.664h56.887c15.090 0 29.558 5.996 40.229 16.664 10.668 10.668 16.661 25.139 16.661 40.226v56.889c0 15.087-5.993 29.558-16.661 40.226-10.671 10.671-25.139 16.664-40.229 16.664h-56.887zM767.998 192v-56.889h-56.887v56.889h56.887zM711.111 248.89c-15.090 0-29.558-5.993-40.226-16.664-10.671-10.668-16.664-25.139-16.664-40.226v-56.889c0-15.087 5.993-29.558 16.664-40.226 10.668-10.668 25.136-16.664 40.226-16.664h56.887c15.090 0 29.558 5.996 40.229 16.664 10.668 10.668 16.661 25.139 16.661 40.226v56.889c0 15.087-5.993 29.558-16.661 40.226-10.671 10.671-25.139 16.664-40.229 16.664h-56.887zM113.778 817.778c-7.544 0-14.779-2.997-20.113-8.331s-8.331-12.57-8.331-20.114v-767.998c0-7.544 2.996-14.78 8.331-20.113s12.57-8.332 20.113-8.332h796.443c15.646 0 28.445 12.772 28.445 28.5v767.886c0 15.758-12.798 28.501-28.445 28.501h-85.332v56.889h85.332c47.163 0 85.335-38.315 85.335-85.391v-767.886c0-22.636-8.988-44.346-24.99-60.359s-37.706-25.016-60.345-25.030h-796.443c-22.632 0-44.336 8.991-60.34 24.995-16.004 16.002-24.994 37.706-24.994 60.339v767.998c0 22.632 8.99 44.337 24.994 60.34s37.708 24.994 60.34 24.994h142.222v-56.889h-142.222zM711.111 817.778h-341.331v56.889h341.331v-56.889zM938.667 561.779h-853.332v56.887h853.332v-56.887zM255.999 931.555c0 7.544 2.997 14.779 8.331 20.114s12.57 8.331 20.113 8.331c7.546 0 14.78-2.997 20.113-8.331 5.337-5.334 8.332-12.57 8.332-20.114v-199.111c0-7.544-2.995-14.779-8.332-20.114-5.334-5.334-12.567-8.331-20.113-8.331-7.543 0-14.778 2.997-20.113 8.331s-8.331 12.57-8.331 20.114v199.111zM711.111 931.555c0 7.544 2.995 14.779 8.329 20.114 5.337 5.334 12.57 8.331 20.113 8.331 7.546 0 14.78-2.997 20.116-8.331 5.334-5.334 8.329-12.57 8.329-20.114v-199.111c0-7.544-2.995-14.779-8.329-20.114-5.337-5.334-12.57-8.331-20.116-8.331-7.544 0-14.777 2.997-20.113 8.331-5.334 5.334-8.329 12.57-8.329 20.114v199.111z" />
<glyph unicode="&#xe902;" glyph-name="phone-call" d="M919.818 490.668h104.181c0 267.549-201.745 469.332-469.332 469.332v-104.308c211.593 0 365.152-153.489 365.152-365.024zM550.911 652.114c115.855 0 165.268-49.411 165.268-165.257h110.177c0 177.651-97.781 275.427-275.444 275.427v-110.172zM739.43 352.285c-10.587 9.62-24.496 14.751-38.798 14.308-14.296-0.444-27.864-6.423-37.831-16.68l-131.832-135.566c-31.731 6.059-95.526 25.947-161.192 91.443-65.667 65.718-85.554 129.672-91.448 161.181l135.465 131.875c10.27 9.964 16.259 23.531 16.701 37.832s-4.698 28.213-14.332 38.791l-203.556 223.813c-9.638 10.612-23.034 17.048-37.342 17.943s-28.402-3.823-39.287-13.151l-119.544-102.514c-9.524-9.558-15.209-22.279-15.976-35.751-0.826-13.772-16.582-339.987 236.389-593.049 220.689-220.621 497.128-236.76 573.263-236.76 11.127 0 17.96 0.33 19.775 0.438 13.471 0.757 26.186 6.468 35.698 16.031l102.468 119.592c9.335 10.877 14.063 24.969 13.181 39.276-0.887 14.302-7.316 27.705-17.92 37.348l-223.881 203.6z" />
<glyph unicode="&#xe903;" glyph-name="square-edit" d="M716.8 960h-409.6c-169.421 0-307.2-137.779-307.2-307.2v-665.6c0-13.579 5.394-26.603 14.996-36.205 9.602-9.6 22.625-14.995 36.204-14.995h665.6c169.421 0 307.2 137.779 307.2 307.2v409.6c0 169.421-137.779 307.2-307.2 307.2zM921.6 243.2c0-112.947-91.853-204.8-204.8-204.8h-614.4v614.4c0 112.947 91.853 204.8 204.8 204.8h409.6c112.947 0 204.8-91.853 204.8-204.8v-409.6zM298.667 320.555v-85.291h85.291l235.904 235.605-85.248 85.248-235.947-235.563zM660.053 511.061l-85.248 85.333 64.981 64.939 85.333-85.291-65.067-64.981z" />
<glyph unicode="&#xe904;" glyph-name="location" d="M266.399 802.556c32.167 31.842 70.428 57.119 112.58 74.377s87.359 26.154 133.023 26.177c92.069 0 180.432-36.125 245.604-100.554 65.269-64.603 101.874-151.952 101.825-242.98 0-157.187-88.71-299.469-181.126-404.517-38.946-44.055-81.169-85.205-126.319-123.11-13.056-11.002-26.388-21.68-39.984-32.028-13.591 10.354-26.923 21.035-39.984 32.028-45.15 37.905-87.373 79.056-126.319 123.11-92.415 105.048-181.125 247.33-181.125 404.517 0 91.167 36.654 178.552 101.825 242.98v0zM495.325-58.82l16.677 23.239 16.677-23.239c-4.884-3.371-10.709-5.18-16.677-5.18s-11.793 1.809-16.677 5.18v0zM495.325-58.82l16.677 23.239 16.677-23.239 0.117 0.057 0.287 0.199 0.87 0.654 3.416 2.418c2.896 2.105 7.122 5.177 12.45 9.216 10.652 8.021 25.768 19.826 43.804 34.987 47.349 39.762 91.622 82.93 132.457 129.143 95.772 108.831 195.254 264.169 195.254 441.751 0 106.101-42.675 207.935-118.647 283.031-37.55 37.167-82.21 66.67-131.413 86.812-49.2 20.142-101.97 30.525-155.273 30.552-53.299-0.023-106.069-10.402-155.27-30.539-49.203-20.137-93.864-49.636-131.417-86.797-76.046-75.267-118.698-177.033-118.647-283.088 0-177.553 99.48-332.891 195.254-441.722 40.835-46.214 85.109-89.381 132.457-129.143 18.068-15.161 33.152-26.965 43.804-34.987 5.228-3.957 10.507-7.845 15.838-11.662l0.927-0.626 0.259-0.199 0.117-0.057zM396.193 561.769c0 30.174 12.2 59.116 33.92 80.452 21.717 21.339 51.174 33.328 81.889 33.328s60.171-11.989 81.889-33.328c21.72-21.336 33.92-50.278 33.92-80.452 0-30.177-12.2-59.119-33.92-80.455-21.717-21.339-51.174-33.326-81.889-33.326s-60.171 11.986-81.889 33.326c-21.72 21.336-33.92 50.278-33.92 80.455zM512.002 732.439c-46.071 0-90.257-17.981-122.834-49.988s-50.879-75.418-50.879-120.681c0-45.266 18.301-88.676 50.879-120.684 32.577-32.006 76.763-49.988 122.834-49.988s90.257 17.983 122.834 49.988c32.577 32.009 50.879 75.418 50.879 120.684 0 45.264-18.301 88.676-50.879 120.681-32.577 32.007-76.763 49.988-122.834 49.988z" />
<glyph unicode="&#xe905;" glyph-name="clock1" d="M512 915.478c-258.181 0-467.478-209.297-467.478-467.478s209.297-467.478 467.478-467.478c258.181 0 467.478 209.297 467.478 467.478s-209.297 467.478-467.478 467.478zM0 448c0 282.77 229.23 512 512 512s512-229.23 512-512c0-282.771-229.229-512-512-512s-512 229.229-512 512zM512 764.103c12.292 0 22.261-9.966 22.261-22.261v-302.261c0-0.004 0 0 0 0 0.004-20.070 7.983-39.321 22.176-53.511l118.227-118.227c8.691-8.691 8.691-22.786 0-31.482-8.695-8.691-22.791-8.691-31.486 0l-118.219 118.223c0 0 0-0.004 0 0-22.541 22.537-35.212 53.11-35.222 84.987v302.27c0 12.294 9.968 22.261 22.261 22.261z" />
<glyph unicode="&#xe906;" glyph-name="clock" d="M366.221 862.476v97.523h291.557v-97.523h-291.557zM512-64c-60.74 0-117.628 11.573-170.656 34.719-53.064 23.178-99.437 54.678-139.122 94.501s-70.865 86.342-93.541 139.558c-22.677 53.248-34.015 109.941-34.015 170.081s11.533 116.833 34.598 170.081c23.098 53.215 54.489 99.734 94.173 139.556s86.041 71.306 139.072 94.453c53.064 23.179 109.559 34.768 169.491 34.768 51.022 0 99.615-8.533 145.779-25.6 46.162-17.066 88.275-41.042 126.339-71.924l70.46 70.704 68.029-68.267-68.029-70.704c29.155-38.198 52.237-80.457 69.245-126.782s25.512-95.085 25.512-146.285c0-60.14-11.339-116.833-34.016-170.081-22.677-53.215-53.856-99.734-93.541-139.558-39.683-39.822-86.040-71.322-139.071-94.501-53.064-23.145-109.966-34.719-170.706-34.719zM512 472.38h325.571c-14.578 50.388-39.473 94.679-74.687 132.877-35.246 38.198-76.761 67.048-124.543 86.552l-126.341-219.428zM426.962 423.619l162.786 282.821c-47.784 12.189-96.992 13.212-147.626 3.073-50.6-10.174-97.768-32.329-141.502-66.462l126.341-219.429zM176.709 326.093h250.253l-162.786 282.821c-34.016-38.198-59.316-81.482-75.902-129.854-16.619-48.34-20.474-99.329-11.565-152.967zM385.659 57.904l126.341 219.428h-325.571c14.578-50.388 39.489-94.679 74.735-132.877 35.213-38.198 76.713-67.048 124.495-86.552zM434.25 43.274c53.454-13.815 105.284-14.416 155.499-1.803 50.212 12.58 94.754 34.312 133.629 65.195l-126.341 219.428-162.786-282.819zM759.822 140.799c35.635 39.009 61.357 82.684 77.165 131.023 15.777 48.372 19.21 98.971 10.302 151.797h-250.252l162.786-282.819z" />
<glyph unicode="&#xe907;" glyph-name="wallet" d="M620.427 878.349c1.086 1.359 2.438 2.483 3.976 3.306 1.536 0.822 3.225 1.326 4.963 1.48s3.49-0.047 5.149-0.588c1.658-0.542 3.187-1.412 4.496-2.559l47.418-41.576-149.255-185.603h98.904l108.427 134.762 85.053-74.602c2.515-2.209 4.062-5.31 4.312-8.638s-0.816-6.621-2.974-9.178l-35.524-42.344h100.086c12.398 18.049 17.734 39.983 15.002 61.672-2.73 21.689-13.339 41.638-29.829 56.090l-190.496 167.069c-9.189 8.049-19.932 14.15-31.573 17.931s-23.934 5.163-36.129 4.060c-12.195-1.102-24.036-4.665-34.801-10.471s-20.225-13.732-27.807-23.297l-216.39-273.054h98.337l178.652 225.54zM717.94 294.406c-10.241 0-20.062-4.046-27.305-11.248-7.24-7.202-11.31-16.968-11.31-27.154s4.069-19.952 11.31-27.154c7.242-7.202 17.064-11.246 27.305-11.246h102.969c10.241 0 20.062 4.044 27.305 11.246 7.24 7.202 11.31 16.968 11.31 27.154s-4.069 19.952-11.31 27.154c-7.242 7.202-17.064 11.248-27.305 11.248h-102.969zM112.992 640.010c0 10.185 4.068 19.952 11.31 27.154s17.063 11.248 27.304 11.248h161.045l61.369 76.801h-222.413c-30.723 0-60.188-12.137-81.912-33.743-21.724-21.604-33.93-50.906-33.93-81.46v-537.608c0-44.132 17.628-86.458 49.009-117.665s73.939-48.738 118.317-48.738h617.819c44.378 0 86.939 17.531 118.318 48.738s49.009 73.533 49.009 117.665v332.805c0 44.132-17.629 86.458-49.009 117.665s-73.939 48.738-118.318 48.738h-669.305c-10.241 0-20.062 4.044-27.304 11.246s-11.31 16.97-11.31 27.154zM112.992 102.402v428.96c12.099-4.249 25.073-6.553 38.613-6.553h669.305c49.734 0 90.099-40.142 90.099-89.602v-332.805c0-23.764-9.494-46.554-26.389-63.359-16.897-16.803-39.815-26.243-63.711-26.243h-617.819c-23.895 0-46.812 9.441-63.709 26.243-16.897 16.804-26.389 39.595-26.389 63.359z" />
<glyph unicode="&#xe908;" glyph-name="wifi" d="M885.342 569.007c-8.248-0.336-16.041-3.67-21.752-9.304-5.712-5.636-8.904-13.138-8.907-20.944s3.179-15.312 8.885-20.952c5.707-5.641 13.496-8.98 21.743-9.323h0.061c8.247 0.336 16.039 3.67 21.752 9.304s8.904 13.138 8.907 20.944c0.003 7.806-3.179 15.312-8.887 20.952-5.706 5.641-13.494 8.98-21.743 9.323h-0.059zM853.338 357.199v-0.828c0-3.975 0.828-7.909 2.437-11.581 1.608-3.671 3.965-7.008 6.938-9.817 2.971-2.811 6.501-5.040 10.383-6.561s8.044-2.303 12.247-2.303c4.203 0 8.364 0.783 12.247 2.303 3.885 1.52 7.412 3.749 10.383 6.561 2.973 2.809 5.33 6.146 6.938 9.817 1.609 3.673 2.437 7.607 2.437 11.581v102.558c0 3.975-0.828 7.911-2.437 11.581-1.608 3.671-3.965 7.008-6.938 9.818-2.971 2.809-6.499 5.038-10.383 6.559-3.883 1.52-8.044 2.303-12.247 2.303s-8.364-0.783-12.247-2.303c-3.883-1.52-7.412-3.749-10.383-6.559-2.973-2.811-5.33-6.147-6.938-9.818-1.609-3.671-2.437-7.607-2.437-11.581v-101.731zM778.691 569.007c8.247-0.336 16.039-3.67 21.752-9.304s8.902-13.138 8.907-20.944c0.003-7.806-3.179-15.312-8.887-20.952-5.706-5.641-13.494-8.98-21.743-9.323h-117.381v-40.349h74.648c8.248-0.335 16.041-3.667 21.753-9.304s8.902-13.138 8.905-20.944c0.005-7.804-3.179-15.312-8.885-20.952s-13.496-8.98-21.743-9.322h-74.707v-51.266c0-8.026-3.373-15.723-9.374-21.398s-14.143-8.864-22.63-8.864c-8.489 0-16.628 3.19-22.63 8.864s-9.374 13.371-9.374 21.398v182.546c0 16.631 14.264 30.119 31.853 30.119h149.538zM1023.999 508.511v-121.019c0-42.798-17.979-83.843-49.985-114.106s-75.415-47.263-120.676-47.263h-64.009c-67.244-74.271-166.521-121.022-277.315-121.022-110.792 0-210.070 46.751-276.92 120.564l-0.424 0.457h-64.010c-45.262 0-88.669 17-120.675 47.263s-49.986 71.308-49.986 114.106v121.019c0 42.798 17.98 83.843 49.986 114.106s75.414 47.263 120.675 47.263h64.010c67.243 74.269 166.521 121.019 277.313 121.019s210.072-46.75 276.922-120.563l0.424-0.457h64.009c22.412 0 44.604-4.174 65.309-12.284 20.706-8.109 39.52-19.996 55.368-34.98 15.847-14.984 28.418-32.775 36.996-52.352 8.576-19.579 12.989-40.562 12.989-61.754zM437.337 569.007c-8.248-0.336-16.041-3.67-21.753-9.304s-8.902-13.138-8.907-20.944c-0.003-7.806 3.179-15.312 8.887-20.952s13.496-8.98 21.743-9.323h0.031c8.247 0.336 16.039 3.67 21.752 9.304s8.904 13.138 8.907 20.944c0.003 7.806-3.179 15.312-8.887 20.952-5.706 5.641-13.494 8.98-21.743 9.323h-0.029zM405.332 357.199c0.355-7.798 3.88-15.166 9.839-20.567 5.961-5.402 13.896-8.418 22.15-8.423 8.255-0.003 16.195 3.007 22.159 8.402s9.498 12.761 9.86 20.56v100.931c-0.353 7.798-3.88 15.167-9.839 20.567-5.96 5.402-13.896 8.419-22.15 8.423s-16.193-3.005-22.159-8.402c-5.965-5.396-9.498-12.761-9.86-20.558v-100.933zM309.319 353.855l49.775 171.457c1.959 3.854 3.040 8.056 3.171 12.329 0.132 4.275-0.689 8.528-2.41 12.482s-4.302 7.523-7.576 10.474c-3.273 2.951-7.167 5.217-11.428 6.651-4.259 1.435-8.792 2.007-13.302 1.678s-8.894-1.551-12.872-3.588c-3.977-2.036-7.456-4.84-10.213-8.231-2.757-3.389-4.728-7.291-5.785-11.448l-0.029-0.2-21.337-73.955-21.337 73.955c-2.048 6.502-6.256 12.208-11.999 16.272-5.745 4.066-12.722 6.272-19.896 6.294s-14.167-2.14-19.939-6.17c-5.773-4.028-10.021-9.708-12.114-16.197l-0.061-0.229-21.335-73.955-21.337 73.955c-1.131 4.075-3.144 7.883-5.913 11.184s-6.233 6.021-10.174 7.989c-3.94 1.967-8.269 3.14-12.713 3.442s-8.906-0.273-13.103-1.688c-4.197-1.414-8.037-3.639-11.277-6.532s-5.809-6.39-7.543-10.27c-1.735-3.881-2.598-8.060-2.534-12.272s1.053-8.366 2.905-12.2l-0.090 0.202 49.775-171.457c1.116-7.258 4.955-13.896 10.814-18.702s13.352-7.46 21.111-7.476c7.757-0.017 15.261 2.602 21.146 7.383 5.885 4.779 9.757 11.399 10.909 18.652l0.029 0.171 21.337 70.585 21.337-70.585c0.635-7.598 4.27-14.693 10.186-19.875 5.913-5.18 13.674-8.065 21.735-8.083 8.062-0.019 15.836 2.833 21.776 7.985 5.941 5.154 9.612 12.234 10.285 19.83v0.114l0.031 0.028zM853.308 629.531h-224.396c-25.353 0-49.667-9.524-67.594-26.474s-27.998-39.941-27.998-63.912v-182.458c-0.001-22.827-9.127-44.808-25.551-61.539-16.421-16.731-38.926-26.974-62.998-28.675l-0.302-0.029h409.443c33.807 0 66.232 12.7 90.138 35.304 23.907 22.605 37.337 53.261 37.337 85.23v122.076c0 31.968-13.43 62.626-37.337 85.23-23.905 22.605-56.331 35.304-90.138 35.304h-0.545l-0.059-0.058z" />
<glyph unicode="&#xe909;" glyph-name="file-check" d="M666.669 36.694l-100.147 92.479-54.52-50.345 154.666-142.827 309.332 285.652-54.52 50.346-254.814-235.306zM400.797 9.144h-274.395v877.701h313.594v-219.426c0.061-19.381 8.341-37.951 23.029-51.654 14.689-13.705 34.594-21.429 55.368-21.487h235.197v-219.426h78.397v292.567c0.138 4.806-0.842 9.585-2.871 14.004s-5.062 8.376-8.889 11.597l-274.396 255.996c-3.451 3.572-7.69 6.402-12.428 8.296s-9.86 2.807-15.012 2.676h-391.992c-20.774-0.058-40.679-7.783-55.368-21.486s-22.968-32.275-23.031-51.655v-877.701c0.062-19.381 8.342-37.951 23.031-51.656s34.594-21.429 55.368-21.487h274.395v73.143zM518.393 872.216l219.516-204.798h-219.516v204.798z" />
<glyph unicode="&#xe90a;" glyph-name="24hr" d="M501.943 948.088c-3.397 3.677-7.497 6.627-12.051 8.673s-9.469 3.146-14.453 3.234c-4.985 0.089-9.937-0.836-14.559-2.718s-8.823-4.684-12.348-8.238c-3.525-3.554-6.304-7.788-8.172-12.448s-2.782-9.653-2.695-14.679 1.178-9.982 3.206-14.574c2.030-4.591 4.955-8.724 8.603-12.15l60.387-60.886c-86.25-0.584-170.475-26.399-242.453-74.312s-128.615-115.863-163.033-195.6c-34.418-79.738-45.138-167.834-30.859-253.596 14.279-85.761 52.945-165.499 111.301-229.533 58.358-64.036 133.894-109.613 217.446-131.202 83.551-21.587 171.52-18.256 253.23 9.588s153.645 79.006 207.075 147.273c53.43 68.267 86.054 150.702 93.913 237.302 0.44 4.895-0.082 9.831-1.536 14.523-1.451 4.693-3.807 9.050-6.93 12.825s-6.953 6.891-11.271 9.175c-4.317 2.282-9.040 3.685-13.896 4.127-4.854 0.442-9.749-0.085-14.402-1.549s-8.977-3.839-12.721-6.988-6.835-7.010-9.1-11.364c-2.263-4.352-3.654-9.114-4.092-14.011-6.564-72.14-33.752-140.81-78.262-197.676-44.512-56.868-104.434-99.491-172.5-122.697-68.063-23.207-141.345-26.001-210.953-8.041-69.606 17.958-132.551 55.897-181.193 109.215-48.644 53.316-80.896 119.72-92.843 191.154s-3.080 144.83 25.529 211.282c28.611 66.453 75.731 123.107 135.648 163.090 59.917 39.981 130.053 61.575 201.903 62.157l-60.387-60.884c-6.76-7.062-10.497-16.519-10.409-26.333s3.999-19.201 10.885-26.137 16.199-10.869 25.933-10.95c9.733-0.079 19.109 3.697 26.108 10.519l123.746 124.767c6.951 7.017 10.856 16.531 10.856 26.449s-3.905 19.432-10.856 26.45l-123.796 124.765zM349.673 459.245c-1.689-6.512-5.956-12.139-11.9-15.689-5.943-3.548-13.095-4.741-19.941-3.325s-12.845 5.332-16.731 10.916-5.35 12.396-4.084 18.996v0.259c0.993 3.997 2.253 7.931 3.772 11.774 2.695 6.353 6.898 14.977 13.582 23.757 8.717 11.56 20.239 20.913 33.573 27.248 13.335 6.337 28.079 9.463 42.958 9.11 29.803 0 54.002-11.104 70.548-28.972 16.060-17.404 23.606-39.869 23.606-61.406 0-18.024-3.719-33.465-11.049-46.789-6.699-11.861-16.025-22.172-27.325-30.213-8.272-5.885-16.912-11.284-25.869-16.163l-3.018-1.757c-9.055-5.165-16.491-9.658-22.905-14.977-21.234-17.611-35.139-36.253-41.176-57.944h104.395c7.149 0 14.002-2.721 19.056-7.563 5.053-4.844 7.891-11.411 7.891-18.259s-2.838-13.416-7.891-18.259c-5.053-4.844-11.907-7.563-19.056-7.563h-134.737c-7.147 0-14 2.72-19.053 7.563s-7.894 11.411-7.894 18.259c0 52.161 25.6 91.618 63.219 122.81 10.241 8.574 21.343 14.977 30.558 20.297l3.126 1.808c7.073 3.794 13.894 8.004 20.426 12.602 5.164 3.541 9.45 8.124 12.557 13.428 3.558 7.073 5.225 14.881 4.85 22.724 0.164 9.922-3.415 19.567-10.078 27.164-5.929 6.405-15.252 11.57-30.181 11.57-17.785 0-27.217-7.539-33.091-15.236-3.528-4.701-6.207-9.94-7.923-15.493l-0.215-0.672zM565.899 542.29c7.149 0 14.002-2.72 19.056-7.563s7.891-11.409 7.891-18.259v-129.11h80.842v129.11c0 6.85 2.84 13.418 7.894 18.259 5.053 4.844 11.907 7.563 19.053 7.563 7.149 0 14.002-2.72 19.056-7.563s7.891-11.409 7.891-18.259v-258.222c0-6.848-2.838-13.416-7.891-18.259s-11.907-7.563-19.056-7.563c-7.147 0-14 2.72-19.053 7.563s-7.894 11.411-7.894 18.259v77.467h-107.789c-7.147 0-14 2.72-19.053 7.563s-7.894 11.411-7.894 18.259v154.933c0 6.85 2.84 13.418 7.894 18.259 5.053 4.844 11.907 7.563 19.053 7.563z" />
<glyph unicode="&#xe90b;" glyph-name="ticket" horiz-adv-x="993" d="M980.964 607.117l-91.294 94.154c-7.367 7.494-17.188 11.87-27.527 12.265s-20.446-3.22-28.331-10.131c-12.17-10.683-27.788-16.262-43.759-15.629-15.968 0.632-31.126 7.429-42.468 19.043-11.255 11.694-17.842 27.322-18.454 43.787-0.614 16.465 4.791 32.568 15.146 45.117 6.699 8.13 10.206 18.554 9.824 29.218-0.385 10.663-4.627 20.792-11.894 28.388l-91.378 94.259c-7.72 7.949-18.187 12.413-29.097 12.413s-21.374-4.464-29.097-12.413l-145.538-150.072c-8.983-9.3-15.76-20.619-19.797-33.070-0.785-2.394-2.095-4.569-3.829-6.356-1.731-1.787-3.842-3.138-6.163-3.949-12.077-4.163-23.056-11.159-32.067-20.439l-373.205-384.889c-7.707-7.962-12.036-18.755-12.036-30.006s4.329-22.044 12.036-30.009l91.398-94.152c7.366-7.494 17.187-11.869 27.526-12.266 10.34-0.394 20.447 3.221 28.33 10.131 12.142 10.771 27.78 16.412 43.784 15.791s31.188-7.453 42.512-19.133c11.324-11.677 17.95-27.338 18.551-43.843 0.601-16.502-4.868-32.631-15.311-45.152-6.702-8.13-10.206-18.556-9.824-29.218 0.383-10.665 4.626-20.793 11.892-28.39l91.294-94.152c7.723-7.947 18.187-12.412 29.097-12.412s21.377 4.465 29.097 12.412l373.208 384.891c8.993 9.287 15.776 20.601 19.819 33.047 0.782 2.402 2.091 4.583 3.829 6.377 1.738 1.79 3.854 3.143 6.184 3.95 12.065 4.164 23.034 11.152 32.045 20.418l145.517 150.094c7.68 7.962 11.987 18.739 11.984 29.969s-4.319 22.004-12.006 29.96zM508.518 670.378c-3.072-3.171-6.721-5.686-10.736-7.402-4.018-1.716-8.322-2.599-12.67-2.599s-8.651 0.883-12.67 2.599c-4.015 1.716-7.664 4.231-10.74 7.402l-23.81 24.557c-6.057 6.434-9.415 15.068-9.349 24.035s3.547 17.547 9.697 23.887c6.15 6.339 14.473 9.928 23.167 9.992s17.064-3.404 23.301-9.653l23.81-24.536c3.075-3.17 5.514-6.933 7.177-11.076 1.666-4.142 2.523-8.582 2.523-13.065s-0.856-8.923-2.523-13.065c-1.663-4.142-4.102-7.906-7.177-11.076zM599.546 576.503c-6.206-6.398-14.621-9.992-23.397-9.992s-17.191 3.593-23.4 9.992l-22.755 23.468c-3.075 3.171-5.514 6.935-7.177 11.075-1.663 4.143-2.52 8.583-2.52 13.067s0.856 8.921 2.52 13.064c1.663 4.143 4.102 7.907 7.177 11.078 6.206 6.402 14.628 9.999 23.406 9.999 4.347 0 8.654-0.883 12.67-2.599s7.664-4.231 10.74-7.4l22.758-23.471c3.084-3.168 5.533-6.935 7.202-11.081 1.673-4.149 2.535-8.595 2.535-13.085 0.003-4.493-0.856-8.94-2.523-13.089s-4.112-7.916-7.196-11.090l-0.040 0.065zM690.57 482.627c-3.072-3.171-6.721-5.685-10.74-7.401-4.015-1.716-8.319-2.6-12.667-2.6s-8.654 0.884-12.67 2.6c-4.015 1.716-7.664 4.229-10.74 7.401l-22.755 23.468c-6.057 6.436-9.415 15.068-9.349 24.036s3.547 17.548 9.697 23.887c6.15 6.339 14.473 9.927 23.167 9.992 8.695 0.062 17.064-3.404 23.301-9.654l22.755-23.468c3.094-3.165 5.551-6.929 7.233-11.075 1.679-4.146 2.551-8.592 2.56-13.089 0.009-4.493-0.841-8.943-2.504-13.098s-4.105-7.928-7.184-11.106l-0.106 0.106zM782.488 387.6c-3.075-3.171-6.724-5.685-10.74-7.401-4.018-1.716-8.322-2.6-12.67-2.6s-8.651 0.884-12.67 2.6c-4.015 1.716-7.664 4.229-10.74 7.401l-23.667 24.536c-3.137 3.162-5.635 6.932-7.348 11.1-1.713 4.164-2.607 8.639-2.628 13.163-0.019 4.524 0.832 9.008 2.504 13.191 1.676 4.18 4.139 7.978 7.249 11.168 3.109 3.193 6.802 5.716 10.867 7.419 4.062 1.707 8.412 2.563 12.8 2.52s8.723-0.987 12.75-2.771c4.031-1.787 7.677-4.381 10.727-7.637l23.689-24.514c3.072-3.171 5.508-6.935 7.171-11.078s2.517-8.583 2.513-13.067c0-4.484-0.86-8.921-2.526-13.064-1.663-4.143-4.105-7.903-7.18-11.072l-0.102 0.106z" />
<glyph unicode="&#xe90c;" glyph-name="time" d="M443.357-40.368c-60.483 0-117.13 11.302-169.935 33.91-52.838 22.605-99.015 53.69-138.532 93.251s-70.564 85.792-93.144 138.691c-22.581 52.87-33.871 109.581-33.871 170.134 0 121.914 42.145 225.066 126.435 309.453 84.258 84.356 187.274 126.533 309.047 126.533 10.483 0 20.563-0.404 30.24-1.211 9.68-0.807 19.357-2.018 29.034-3.633 10.483-1.615 19.354-7.056 26.611-16.325 7.261-9.301 10.89-19.604 10.89-30.907 0-16.148-5.437-28.452-16.307-36.914-10.902-8.493-24.822-11.933-41.757-10.318-6.454 0.807-12.906 1.421-19.357 1.841-6.451 0.388-12.902 0.581-19.354 0.581-95.162 0-175.403-32.699-240.725-98.096s-97.983-145.734-97.983-241.005c0-95.274 32.661-175.606 97.983-241.005s145.563-98.099 240.725-98.099c94.355 0 174 32.298 238.934 96.886 64.902 64.592 98.16 144.118 99.773 238.582v0c0 13.728 4.646 25.837 13.936 36.333 9.258 10.496 20.742 15.744 34.451 15.744 12.902 0 24.192-4.634 33.869-13.904 9.68-9.299 14.518-20.006 14.518-32.115v-2.422c0-121.917-42.147-225.053-126.435-309.408-84.259-84.387-187.274-126.579-309.046-126.579zM830.451 540.947c-13.709 0-25.194 4.65-34.451 13.952-9.29 9.267-13.936 20.765-13.936 34.493v96.885h-96.774c-13.709 0-25.194 4.634-34.451 13.903-9.29 9.301-13.936 20.814-13.936 34.54s4.646 25.239 13.936 34.54c9.258 9.269 20.742 13.903 34.451 13.903h96.774v96.886c0 13.726 4.646 25.239 13.936 34.54 9.258 9.269 20.742 13.903 34.451 13.903s25.194-4.634 34.451-13.903c9.29-9.301 13.936-20.814 13.936-34.54v-96.886h96.774c13.709 0 25.19-4.634 34.451-13.903 9.29-9.301 13.933-20.814 13.933-34.54s-4.643-25.239-13.933-34.54c-9.261-9.269-20.742-13.903-34.451-13.903h-96.774v-96.885c0-13.728-4.646-25.226-13.936-34.493-9.258-9.302-20.742-13.952-34.451-13.952zM544.97 226.067l-135.485 135.642c-4.838 4.845-8.467 10.301-10.886 16.374-2.419 6.038-3.629 12.288-3.629 18.746v192.563c0 13.725 4.646 25.238 13.936 34.538 9.258 9.27 20.742 13.904 34.451 13.904s25.21-4.634 34.499-13.904c9.258-9.299 13.888-20.813 13.888-34.538v-174.397l120.966-121.107c8.87-8.88 13.306-20.186 13.306-33.91s-4.435-25.030-13.306-33.91c-8.87-8.88-20.16-13.322-33.872-13.322-13.709 0-24.998 4.442-33.869 13.322z" />
<glyph unicode="&#xe90d;" glyph-name="protect" d="M213.333 843.463c0 66.076 298.667 116.537 298.667 116.537s298.666-50.46 298.666-116.537c0-88.092-54.326-125.241-54.326-125.241h-488.677c0 0-54.329 37.148-54.329 125.241zM554.666 832c0-11.316-4.493-22.168-12.496-30.17-8-8.002-18.854-12.497-30.17-12.497s-22.17 4.495-30.17 12.497c-8.003 8.002-12.496 18.854-12.496 30.17s4.493 22.168 12.496 30.17c8 8.002 18.854 12.497 30.17 12.497s22.17-4.495 30.17-12.497c8.003-8.002 12.496-18.854 12.496-30.17zM734.266 610.701c39.536 30.864 33.392 64.855 33.392 64.855h-511.316c0 0-6.172-33.991 33.394-64.855-7.284-33.229-7.023-67.67 0.761-100.787 7.785-33.12 22.896-64.070 44.22-90.576 21.328-26.506 48.323-47.891 79.008-62.589 30.682-14.694 64.269-22.32 98.288-22.32 34.022 0 67.61 7.626 98.291 22.32 30.682 14.698 57.68 36.083 79.005 62.589 21.328 26.506 36.438 57.456 44.224 90.576 7.782 33.117 8.045 67.558 0.762 100.787h-0.029zM512 561.779c77.398 0 131.498 8.931 169.302 21.786 3.075-24.045 0.992-48.467-6.109-71.645-7.098-23.178-19.056-44.576-35.072-62.774-16.016-18.195-35.725-32.771-57.814-42.755s-46.051-15.146-70.294-15.146c-24.24 0-48.202 5.162-70.291 15.146s-41.798 24.56-57.814 42.755c-16.016 18.198-27.974 39.597-35.075 62.774s-9.181 47.6-6.106 71.645c37.776-12.854 91.875-21.786 169.274-21.786zM554.666 277.334c7.546 0 14.781-2.998 20.115-8.333s8.33-12.57 8.33-20.112v-39.312c-0.003-5.28-1.475-10.454-4.253-14.947-2.778-4.49-6.752-8.122-11.475-10.48l-12.717-6.371 16.413-82.064 120.605 180.906c8.25 0 15.93-0.054 22.87-0.112 153.741-35.072 309.446-106.582 309.446-214.16v-126.349h-1024v126.349c0 107.578 162.503 179.914 316.245 214.986-0.54-0.115 5.233-0.202 15.787-0.285l121.856-182.755 15.446 83.485-12.717 6.371c-4.723 2.358-8.698 5.99-11.475 10.48-2.778 4.493-4.25 9.667-4.253 14.947v39.312c0 7.542 2.995 14.778 8.33 20.112s12.57 8.333 20.115 8.333h85.331zM824.89 125.638c0 0-37.917 18.944-56.89 37.917-18.973-18.973-56.89-37.917-56.89-37.917s19.856-75.859 56.89-75.859c37.034 0 56.89 75.859 56.89 75.859z" />
<glyph unicode="&#xe90e;" glyph-name="message" d="M0 498.734c0 249.184 236.383 439.297 512 439.297s512-190.114 512-439.297c0-249.109-236.34-439.204-511.922-439.242h-0.078v43.342l0.16-43.342h-0.082c-70.269-0.251-139.936 12.244-205.639 36.81l-21.158 8.391c7.004-2.939 14.058-5.734 21.158-8.391l-210.84-131.749c-14.752-9.214-33.585-8.721-47.832 1.257-14.248 9.981-21.148 27.509-17.528 44.524l52.846 248.285c4.359-5.721 8.865-11.343 13.515-16.865l-13.515 16.865c-52.184 68.488-83.084 150.975-83.084 240.116zM512.001 851.348c-242.016 0-425.319-164.428-425.319-352.615 0-74.127 27.694-143.525 76.217-201.139 8.615-10.228 12.026-23.863 9.242-36.944l-35.854-168.46 142.786 89.223c11.935 7.459 26.746 8.656 39.725 3.216 61.119-25.624 126.767-38.703 193.041-38.457h0.16c242.023 0 425.319 164.433 425.319 352.56 0 188.187-183.299 352.615-425.319 352.615zM511.94 426.032c29.29 0 58.585 29.29 58.585 58.58 0 29.295-29.295 58.584-58.585 58.584s-58.524-29.29-58.524-58.584c0-29.29 29.234-58.58 58.524-58.58zM277.611 426.032c29.291 0 58.582 29.29 58.582 58.58 0 29.295-29.291 58.584-58.582 58.584s-58.524-29.29-58.524-58.584c0-29.29 29.234-58.58 58.524-58.58v0zM746.27 426.032c29.29 0 58.641 29.29 58.641 58.58 0 29.295-29.29 58.584-58.58 58.584-29.295 0-58.585-29.29-58.585-58.584 0-29.29 29.29-58.58 58.585-58.58h-0.061z" />
<glyph unicode="&#xe90f;" glyph-name="Whats-App" d="M512-64c-282.77 0-512 229.231-512 512s229.23 512 512 512c282.769 0 512-229.23 512-512s-229.231-512-512-512zM768 448c0 141.389-114.611 256-256 256s-256-114.611-256-256c-0.062-46.638 12.671-92.399 36.813-132.301l-22.835-77.619-0.666-2.79c-0.768-4.335-0.416-8.795 1.023-12.959 1.439-4.161 3.917-7.885 7.198-10.823 3.282-2.935 7.258-4.983 11.556-5.951 4.295-0.97 8.767-0.822 12.991 0.421l77.619 22.835 7.808-4.557c38.059-21.214 80.922-32.319 124.493-32.256 141.389 0 256 114.611 256 256zM407.765 624.313c31.568 18.657 67.567 28.493 104.235 28.487 31.764-0.009 63.093-7.407 91.506-21.609 28.413-14.199 53.134-34.816 72.206-60.217s31.977-54.892 37.689-86.138c5.714-31.246 4.082-63.394-4.77-93.901s-24.676-58.536-46.225-81.872c-21.55-23.339-48.233-41.344-77.941-52.591-29.705-11.25-61.622-15.434-93.224-12.223-31.602 3.209-62.023 13.727-88.86 30.72-9.139 5.811-20.659 7.808-31.744 4.531l-38.426-11.29 11.29 38.426 0.998 4.173c1.715 9.754-0.461 19.584-5.53 27.571-19.627 30.973-30.578 66.648-31.71 103.302-1.129 36.651 7.6 72.932 25.279 105.060 17.678 32.125 43.659 58.914 75.227 77.571zM446.82 572.649c-3.069 0.336-6.175-0.131-9.008-1.36-23.68-10.138-43.93-35.814-42.957-62.541 0.028-0.64 0.063-1.28 0.102-1.92l0.333-4.48 0.64-5.325 1.024-6.093c4.454-23.654 17.869-61.568 57.139-100.864 39.296-39.27 77.21-52.685 100.864-57.139l6.093-1.024c0.922-0.128 1.843-0.247 2.765-0.358l4.89-0.461 4.070-0.256c26.675-0.973 52.352 19.174 62.49 42.829 1.266 2.93 1.724 6.144 1.323 9.31s-1.644 6.167-3.601 8.687c-10.522 13.44-23.808 24.038-37.632 33.894l-13.901 9.702c-3.868 2.677-8.624 3.749-13.269 2.995s-8.815-3.277-11.639-7.040l-15.386-23.424-0.973-1.152c-1.843-1.664-4.557-2.074-6.81-0.794-10.394 5.965-25.574 16.102-36.506 27.008-10.906 10.906-20.403 25.421-25.779 35.149-0.663 1.24-0.856 2.677-0.54 4.048 0.316 1.368 1.118 2.577 2.256 3.402l23.654 17.562 1.92 1.946c2.597 3.046 4.122 6.864 4.335 10.86 0.21 3.996-0.896 7.953-3.157 11.258l-3.917 5.76-8.371 12.134c-8.806 12.339-19.046 24.986-31.949 34.406-2.5 1.812-5.43 2.941-8.502 3.28z" />
<glyph unicode="&#xe910;" glyph-name="clients" horiz-adv-x="1365" d="M392.533 814.484c0-67.407-53.547-122.161-119.467-122.161-65.984 0-119.467 54.755-119.467 122.161 0 67.472 53.483 122.161 119.467 122.161 65.92 0 119.467-54.689 119.467-122.161zM444.587 578.233c-63.36-57.589-103.253-141.578-103.253-234.941 0-74.825 23.68-143.539 68.267-197.423v-46.899c0-38.613-30.507-69.807-68.267-69.807h-136.533c-37.696 0-68.267 31.194-68.267 69.807v58.462c-80.725 39.266-136.533 123.251-136.533 220.762 0 135.031 106.965 244.323 238.933 244.323h68.267c49.28 0 98.56-16.361 137.387-44.283zM136.533 470.468c-21.248-24.431-34.133-56.934-34.133-92.275s12.885-67.844 34.133-92.275v184.55zM955.733 98.97v46.899c42.667 53.884 68.267 122.598 68.267 197.423 0 93.363-39.893 177.353-103.253 234.941 38.827 27.922 86.187 44.283 137.387 44.283h68.267c132.053 0 238.933-109.292 238.933-244.323 0-97.51-55.893-181.495-136.533-220.762v-58.462c0-38.613-30.507-69.807-68.267-69.807h-136.533c-37.76 0-68.267 31.194-68.267 69.807zM1228.8 285.918c19.413 24.431 34.133 56.934 34.133 92.275s-14.72 67.844-34.133 92.275v-184.55zM1211.733 814.484c0-67.407-53.547-122.161-119.467-122.161s-119.467 54.755-119.467 122.161c0 67.472 53.547 122.161 119.467 122.161s119.467-54.689 119.467-122.161zM546.133 797.033c0 77.114 61.227 139.613 136.533 139.613s136.533-62.499 136.533-139.613c0-77.006-61.227-139.613-136.533-139.613s-136.533 62.607-136.533 139.613zM955.733 343.292c0-97.51-55.893-181.5-136.533-220.766v-93.363c0-38.613-30.507-69.807-68.267-69.807h-136.533c-37.76 0-68.267 31.194-68.267 69.807v93.363c-80.64 39.266-136.533 123.255-136.533 220.766 0 135.031 106.88 244.322 238.933 244.322h68.267c132.053 0 238.933-109.29 238.933-244.322zM546.133 251.017v184.55c-21.333-24.435-34.133-56.939-34.133-92.275 0-35.341 12.8-67.844 34.133-92.275zM819.2 435.567v-184.55c19.413 24.649 34.133 56.934 34.133 92.275 0 35.337-14.72 67.84-34.133 92.275z" />
<glyph unicode="&#xe911;" glyph-name="Telegram" d="M512-64c-282.77 0-512 229.231-512 512s229.23 512 512 512c282.769 0 512-229.23 512-512s-229.231-512-512-512zM739.319 616.963c3.962 44.848-43.398 26.382-43.398 26.382h-0.023c-35.066-14.518-71.236-29.272-107.793-44.186-112.942-46.071-229.604-93.662-328.998-140.501-53.942-19.783-22.369-39.569-22.369-39.569l85.526-26.394c39.461-11.873 60.513 1.331 60.513 1.331l184.198 125.318c65.778 44.848 49.991 7.91 34.204-7.913l-138.126-131.925c-21.066-18.469-10.533-34.29-1.317-42.214 26.084-23.012 90.229-65.112 118.286-83.527 7.319-4.804 12.18-7.996 13.269-8.815 6.585-5.279 42.106-29.013 65.781-23.748 23.686 5.279 26.32 35.621 26.32 35.621l31.57 207.115c4.725 35.843 10.14 70.303 14.47 97.866 4.116 26.194 7.253 46.16 7.888 55.159z" />
<glyph unicode="&#xe914;" glyph-name="Facebook" d="M512-64c282.769 0 512 229.231 512 512s-229.231 512-512 512c-282.77 0-512-229.23-512-512s229.23-512 512-512zM542.293 425.21v-233.131h-94.208v233.301h-78.308v91.278h78.137v66.987c0 77.909 47.73 120.349 117.248 120.349 23.438 0.091 46.865-1.115 70.172-3.612v-81.38h-47.9c-37.803 0-45.141-18.034-45.141-44.373v-58.14h90.34l-11.691-91.278h-78.649z" />
<glyph unicode="&#xe915;" glyph-name="telegram" d="M681.401 584.747c1.687 5.356 1.687 10.712 0 17.852 0 3.573-3.374 8.929-5.060 10.712-5.060 5.356-13.494 5.356-16.868 5.356-15.181 0-40.485-8.926-156.874-60.698-40.485-17.852-121.452-53.558-242.903-110.686-20.242-8.926-30.363-16.065-32.049-24.994-1.476-12.498 15.136-18.162 36.268-25.364 3.013-1.027 6.118-2.085 9.276-3.2 21.929-7.14 50.604-16.065 65.787-16.065 13.494 0 28.675 5.356 45.542 17.852 113.018 82.122 172.058 123.182 175.431 123.182 1.195 0 2.389 0.225 3.51 0.435 2.042 0.381 3.834 0.717 4.924-0.435 3.374-3.57 3.374-7.14 1.687-8.926-1.351-7.142-69.68-74.886-100.378-105.318-7.663-7.595-12.979-12.865-14.327-14.293-3.106-3.288-6.272-6.423-9.33-9.449-20.19-19.988-35.726-35.368 0.896-60.174 13.761-9.711 25.23-18.071 36.289-26.135 17.405-12.689 33.792-24.636 56.485-39.919 5.342-3.635 10.422-7.45 15.363-11.159 16.905-12.695 32.148-24.144 50.423-22.761 11.807 1.786 23.617 12.496 28.678 46.416 15.181 76.766 42.169 248.149 47.229 317.773z" />
<glyph unicode="&#xe916;" glyph-name="LinkedIn" d="M512 960c-282.773 0-512-229.227-512-512s229.227-512 512-512c282.773 0 512 229.227 512 512s-229.227 512-512 512zM386.668 235.786h-103.68v333.653h103.68v-333.653zM334.187 610.399c-32.747 0-53.92 23.199-53.92 51.894 0 29.28 21.813 51.787 55.253 51.787s53.92-22.506 54.56-51.787c0-28.694-21.12-51.894-55.894-51.894zM765.334 235.786h-103.68v184.906c0 43.040-15.040 72.267-52.533 72.267-28.64 0-45.653-19.787-53.173-38.827-2.773-6.773-3.467-16.373-3.467-25.92v-192.373h-103.733v227.2c0 41.653-1.333 76.48-2.72 106.453h90.080l4.747-46.347h2.080c13.653 21.76 47.094 53.866 103.040 53.866 68.213 0 119.36-45.706 119.36-143.947v-197.28z" />
<glyph unicode="&#xe917;" glyph-name="facebook" d="M542.293 192.080v233.131h78.649l11.691 91.278h-90.34v58.14c0 26.34 7.339 44.373 45.141 44.373h47.9v81.38c-23.307 2.498-46.734 3.704-70.172 3.612-69.518 0-117.248-42.44-117.248-120.349v-66.987h-78.137v-91.278h78.308v-233.301h94.208z" />
<glyph unicode="&#xe919;" glyph-name="map" d="M388.004 625.421c-20.198 0-36.571-16.374-36.571-36.571s16.374-36.571 36.571-36.571v73.143zM388.387 552.278c20.198 0 36.571 16.374 36.571 36.571s-16.374 36.571-36.571 36.571v-73.143zM266.239 619.569v0zM512 619.569l35.667 8.087-0.042 0.181-35.624-8.267zM442.026 445.489l-25.152 26.549-0.127-0.121 25.279-26.428zM336.214 445.489l-25.152-26.549 0.064-0.060 25.089 26.609zM869.515 90.5l25.746-25.973 0.227 0.227-25.973 25.746zM267.488 32.9l-8.172-35.643 0.048-0.015 8.124 35.657zM597.302 362.714v0zM927.137 692.528l35.657 8.125-0.015 0.047-35.643-8.172zM639.988 874.714v0zM388.004 552.278h0.383v73.143h-0.383v-73.143zM301.864 611.301c9.892 42.624 46.431 65.456 87.255 65.456s77.364-22.832 87.256-65.456l71.249 16.535c-19.121 82.39-90.955 122.064-158.505 122.064s-139.383-39.674-158.504-122.064l71.249-16.535zM476.333 611.482c12.071-53.238-20.808-102.827-59.459-139.444l50.303-53.098c42.416 40.183 101.697 115.181 80.489 208.716l-71.333-16.174zM416.747 471.917c-15.2-14.539-39.564-14.792-55.445 0.181l-50.177-53.218c43.853-41.347 112.5-41.6 156.18 0.181l-50.558 52.856zM361.365 472.038c-38.823 36.78-71.834 86.235-59.505 139.247l-71.241 16.568c-21.805-93.761 38.199-168.893 80.443-208.913l50.304 53.098zM843.769 116.473c-38.034-37.698-100.776-58.522-203.8-58.522v-73.143c110.309 0 196.903 21.848 255.293 79.718l-51.493 51.946zM639.969 57.951h-256v-73.143h256v73.143zM383.969 57.951c-42.323 0-77.907 3.672-108.356 10.606l-16.249-71.314c36.965-8.419 78.181-12.434 124.605-12.434v73.143zM293.348 7.044l329.814 329.811-51.72 51.72-329.814-329.811 51.72-51.719zM571.442 336.854l272.217-272.211 51.719 51.719-272.217 272.211-51.72-51.72zM901.274 718.388l-659.645-659.625 51.719-51.719 659.645 659.623-51.719 51.721zM275.659 68.549c-56.855 13.034-93.142 37.925-116.438 75.045-24.237 38.619-37.328 95.056-37.328 176.453h-73.143c0-87.563 13.778-159.982 48.518-215.336 35.68-56.847 90.477-91.048 162.048-107.454l16.343 71.292zM121.893 320.048v256h-73.143v-256h73.143zM121.893 576.048c0 103.060 20.836 165.688 58.622 203.473s100.414 58.622 203.474 58.622v73.143c-110.274 0-196.98-21.831-255.193-80.045s-80.045-144.919-80.045-255.193h73.143zM383.988 838.143h256v73.143h-256v-73.143zM639.988 838.143c81.395 0 137.835-13.096 176.454-37.337 37.12-23.302 62.011-59.594 75.045-116.45l71.292 16.343c-16.406 71.57-50.6 126.372-107.454 162.057-55.355 34.746-127.772 48.53-215.337 48.53v-73.143zM902.085 576.047v-256h73.143v256h-73.143zM902.085 320.047c0-103.017-20.838-165.759-58.544-203.801l51.946-51.493c57.871 58.39 79.74 144.976 79.74 255.293h-73.143zM623.161 336.854l329.832 329.813-51.719 51.722-329.831-329.813 51.719-51.722zM891.48 684.403c6.934-30.448 10.606-66.033 10.606-108.356h73.143c0 46.423-4.016 87.64-12.434 124.605l-71.314-16.249z" />
<glyph unicode="&#xe91a;" glyph-name="instagram" d="M511.937 523.884c-41.782 0-75.881-34.099-75.881-75.884s34.099-75.884 75.881-75.884c41.785 0 75.884 34.099 75.884 75.884s-34.099 75.884-75.884 75.884zM739.53 448c0 31.423 0.284 62.564-1.479 93.929-1.766 36.434-10.078 68.77-36.719 95.411-26.698 26.698-58.974 34.953-95.408 36.719-31.423 1.764-62.561 1.479-93.926 1.479-31.425 0-62.564 0.285-93.929-1.479-36.434-1.766-68.767-10.078-95.408-36.719-26.698-26.698-34.953-58.977-36.719-95.411-1.764-31.423-1.479-62.564-1.479-93.929s-0.285-62.564 1.479-93.929c1.766-36.434 10.078-68.77 36.719-95.411 26.698-26.698 58.974-34.953 95.408-36.719 31.423-1.764 62.561-1.479 93.929-1.479 31.423 0 62.561-0.284 93.926 1.479 36.434 1.766 68.767 10.078 95.408 36.719 26.698 26.698 34.953 58.977 36.719 95.411 1.82 31.366 1.479 62.507 1.479 93.929zM511.937 331.241c-64.609 0-116.753 52.147-116.753 116.759s52.144 116.759 116.753 116.759c64.612 0 116.756-52.147 116.756-116.759s-52.144-116.759-116.756-116.759zM633.478 542.271c-15.087 0-27.27 12.183-27.27 27.27 0 15.084 12.183 27.267 27.27 27.267 15.084 0 27.267-12.183 27.267-27.267 0.003-3.581-0.697-7.131-2.068-10.442-1.368-3.308-3.376-6.318-5.908-8.849-2.534-2.534-5.541-4.543-8.852-5.911s-6.858-2.071-10.439-2.068z" />
</font>
</defs>
</svg>
